Invalid floating point operation and other issues

Discussion about Avi2Dvd.
Requests and bug fixing.

Moderators: george, Excalibur!, skyheartblue, roger_rabbit, reburn

Invalid floating point operation and other issues

Postby yairku » Thu Dec 22, 2011 7:41 pm

Hi
First of all, I want to say that I really appreciate the people that worked and are working for the nice and important projects I use, especially Avi2Dvd. Thank you for your contributions! You help lots of people. May G-D bless you.

Now lets talk about my issues.
I am trying to convert a mkv file to dvd, and I'm facing problems. I add the job and start it, and then I get the error message: "Invalid floating point operation". Then the program continues. A cmd window opens, and it shows the text: "BeSplit v0.82 by DSPguru." after a while, the window closes and I see a new cmd window with some text on it. That window disappears very quickly, and the only window that remains is Avi2Dvd. It tells me that all jobs done. A quote of Avi2Dvd after that short process:
"[9:12:23 PM] AVI2DVD Started !
[9:12:24 PM] Type mode : Avi Input
[9:12:24 PM] Output : Dvd
[9:12:24 PM] Encoder Selected : NuEnc
[9:12:24 PM] Start demuxing the AudioStream No.1 ...
[9:13:35 PM] Demuxing of the selected audio finished successfully ! [D:\Avi2dvd_temp\Extracted_Audio.ac3 1044298420 Bytes]
[9:13:35 PM] Starts Audio correction ...
[9:15:43 PM] Audio Fixed successfully ! [D:\Avi2dvd_temp\Fixed_Audio01.ac3 0 Bytes]
[9:15:43 PM] Starts Ac3->Ac3 convertion ...
[9:15:46 PM] Audio converted in Ac3 successfully ! [D:\Avi2dvd_temp\AudioStream 1 AC3 6CH.ac3 -1 Bytes]
[9:15:46 PM] Job NOT Done. There are warnings ... Find at the log file the 0 byte generated file to focus where exactly the problem appears
[9:15:46 PM] All Jobs Done !!!"

A quote of the BeSplit log file from the temporary folder of the dvd:
"BeSplit v0.82 by DSPguru.
--------------------------
Logging start : 12/22/11 , 21:13:36.

-core( -input D:\AVI2DV~1\EXTRAC~1.AC3 -prefix D:\AVI2DV~1\Fixed_Audio -type ac3 -fix -logfile D:\AVI2DV~1\BeSplit.txt )

[00:00:00:000] +------- BeSplit -----
[00:00:00:000] | Input : D:\AVI2DV~1\EXTRAC~1.AC3
[00:00:00:000] | Output Prefix : D:\AVI2DV~1\Fixed_Audio
[00:00:00:000] +---------------------
[00:00:00:000] | Writing D:\AVI2DV~1\Fixed_Audio01.ac3
[00:00:00:000] +---------------------
[00:00:00:000] Operation Completed !
[00:02:07:000] <-- Process Duration
Logging ends : 12/22/11 , 21:15:43."

Edit: When I close Avi2Dvd after this unsuccessful process, I get this error message: "Exception EAccessViolation in module Avi2Dvd.exe at 00006919.
Access violation at address 00406919 in module ‘Avi2Dvd.exe’. Read of address 000018c0."


It is important to say that this is the second mkv file that I try to convert. I have successfully converted the first one, and the only problem with it is the fact that it shakes up and down from time to time while playing.

Please help me with this issue! :cry:
Thank you very much,
Yair
yairku
Junior Member
 
Posts: 6
Joined: Tue Nov 29, 2011 3:25 pm

Re: Invalid floating point operation and other issues

Postby yairku » Thu Dec 29, 2011 8:28 pm

MediaInfo about the mkv file:

General
Unique ID : 213360944893930980653150508633432462831 (0xA083D2C20B9E9C659CEA726C5FF315EF)
Complete name : D:\history.mkv
Format : Matroska
Format version : Version 2
File size : 4.37 GiB
Duration : 1h 32mn
Overall bit rate : 6 784 Kbps
Encoded date : UTC 2009-07-22 00:08:58
Writing application : mkvmerge v2.9.7 ('Tenderness') built on Jul 1 2009 18:43:35
Writing library : libebml v0.7.7 + libmatroska v0.8.1

Video
ID : 1
Format : AVC
Format/Info : Advanced Video Codec
Format profile : High@L4.1
Format settings, CABAC : Yes
Format settings, ReFrames : 5 frames
Codec ID : V_MPEG4/ISO/AVC
Duration : 1h 32mn
Bit rate : 5 273 Kbps
Width : 1 280 pixels
Height : 544 pixels
Display aspect ratio : 2.35:1
Frame rate : 23.976 fps
Color space : YUV
Chroma subsampling : 4:2:0
Bit depth : 8 bits
Scan type : Progressive
Bits/(Pixel*Frame) : 0.316
Stream size : 3.31 GiB (76%)
Writing library : x264 core 68 r1183M f21daff
Encoding settings : cabac=1 / ref=5 / deblock=1:0:0 / analyse=0x3:0x2 / me=umh / subme=7 / psy_rd=1.0:0.0 / mixed_ref=1 / me_range=16 / chroma_me=1 / trellis=1 / 8x8dct=1 / cqm=0 / deadzone=21,11 / chroma_qp_offset=-2 / threads=6 / nr=0 / decimate=1 / mbaff=0 / bframes=3 / b_pyramid=1 / b_adapt=1 / b_bias=0 / direct=1 / wpredb=1 / keyint=250 / keyint_min=25 / scenecut=40 / rc=2pass / bitrate=5273 / ratetol=1.0 / qcomp=0.60 / qpmin=10 / qpmax=51 / qpstep=4 / cplxblur=20.0 / qblur=0.5 / ip_ratio=1.40 / pb_ratio=1.30 / aq=1:1.00
Language : English
Default : Yes
Forced : No

Audio
ID : 2
Format : DTS
Format/Info : Digital Theater Systems
Codec ID : A_DTS
Duration : 1h 32mn
Bit rate mode : Constant
Bit rate : 1 510 Kbps
Channel(s) : 6 channels
Channel positions : Front: L C R, Side: L R, LFE
Sampling rate : 48.0 KHz
Bit depth : 24 bits
Compression mode : Lossy
Stream size : 996 MiB (22%)
Default : Yes
Forced : No

Text
ID : 3
Format : UTF-8
Codec ID : S_TEXT/UTF8
Codec ID/Info : UTF-8 Plain Text
Language : English
Default : No
Forced : No

Help me please!
yairku
Junior Member
 
Posts: 6
Joined: Tue Nov 29, 2011 3:25 pm

Re: Invalid floating point operation and other issues

Postby H.Ammer » Thu Dec 29, 2011 9:56 pm

DTS does not seem to be a supported audio format and requires to be converted first to AC3. There are several free software converters available (see the thread on preparing MKV files before use), more precise Popcorn AudioConverter.

Please give it a try.
H.Ammer
Senior Member
 
Posts: 142
Joined: Mon Jun 08, 2009 4:01 pm

Re: Invalid floating point operation and other issues

Postby yairku » Mon Jan 02, 2012 4:29 pm

Thank you.
I've already converted the file to DVD with other software, but I'm sure your answer could help me in the future. Thanks for your help!
yairku
Junior Member
 
Posts: 6
Joined: Tue Nov 29, 2011 3:25 pm


Return to Avi2Dvd

Who is online

Users browsing this forum: No registered users and 1 guest